  0
SECTION
  2
HEADER
  9
$ACADVER
  1
AC1014
  9
$ACADMAINTVER
 70
     9
  9
$DWGCODEPAGE
  3
ANSI_1252
  9
$INSBASE
 10
0.0
 20
0.0
 30
0.0
  9
$EXTMIN
 10
4.464861569919834
 20
4.853467903231424
 30
0.0
  9
$EXTMAX
 10
7.85265143140031
 20
8.029795700811281
 30
0.0
  9
$LIMMIN
 10
0.0
 20
0.0
  9
$LIMMAX
 10
12.0
 20
9.0
  9
$ORTHOMODE
 70
     0
  9
$REGENMODE
 70
     1
  9
$FILLMODE
 70
     1
  9
$QTEXTMODE
 70
     0
  9
$MIRRTEXT
 70
     1
  9
$DRAGMODE
 70
     2
  9
$LTSCALE
 40
1.0
  9
$OSMODE
 70
     0
  9
$ATTMODE
 70
     1
  9
$TEXTSIZE
 40
0.2
  9
$TRACEWID
 40
0.05
  9
$TEXTSTYLE
  7
STANDARD
  9
$CLAYER
  8
0
  9
$CELTYPE
  6
BYLAYER
  9
$CECOLOR
 62
   256
  9
$CELTSCALE
 40
1.0
  9
$DELOBJ
 70
     1
  9
$DISPSILH
 70
     0
  9
$DIMSCALE
 40
1.0
  9
$DIMASZ
 40
0.18
  9
$DIMEXO
 40
0.0625
  9
$DIMDLI
 40
0.38
  9
$DIMRND
 40
0.0
  9
$DIMDLE
 40
0.0
  9
$DIMEXE
 40
0.18
  9
$DIMTP
 40
0.0
  9
$DIMTM
 40
0.0
  9
$DIMTXT
 40
0.18
  9
$DIMCEN
 40
0.09
  9
$DIMTSZ
 40
0.0
  9
$DIMTOL
 70
     0
  9
$DIMLIM
 70
     0
  9
$DIMTIH
 70
     1
  9
$DIMTOH
 70
     1
  9
$DIMSE1
 70
     0
  9
$DIMSE2
 70
     0
  9
$DIMTAD
 70
     0
  9
$DIMZIN
 70
     0
  9
$DIMBLK
  1

  9
$DIMASO
 70
     1
  9
$DIMSHO
 70
     1
  9
$DIMPOST
  1

  9
$DIMAPOST
  1

  9
$DIMALT
 70
     0
  9
$DIMALTD
 70
     2
  9
$DIMALTF
 40
25.4
  9
$DIMLFAC
 40
1.0
  9
$DIMTOFL
 70
     0
  9
$DIMTVP
 40
0.0
  9
$DIMTIX
 70
     0
  9
$DIMSOXD
 70
     0
  9
$DIMSAH
 70
     0
  9
$DIMBLK1
  1

  9
$DIMBLK2
  1

  9
$DIMSTYLE
  2
STANDARD
  9
$DIMCLRD
 70
     0
  9
$DIMCLRE
 70
     0
  9
$DIMCLRT
 70
     0
  9
$DIMTFAC
 40
1.0
  9
$DIMGAP
 40
0.09
  9
$DIMJUST
 70
     0
  9
$DIMSD1
 70
     0
  9
$DIMSD2
 70
     0
  9
$DIMTOLJ
 70
     1
  9
$DIMTZIN
 70
     0
  9
$DIMALTZ
 70
     0
  9
$DIMALTTZ
 70
     0
  9
$DIMFIT
 70
     3
  9
$DIMUPT
 70
     0
  9
$DIMUNIT
 70
     2
  9
$DIMDEC
 70
     2
  9
$DIMTDEC
 70
     2
  9
$DIMALTU
 70
     2
  9
$DIMALTTD
 70
     2
  9
$DIMTXSTY
  7
STANDARD
  9
$DIMAUNIT
 70
     0
  9
$LUNITS
 70
     2
  9
$LUPREC
 70
     4
  9
$SKETCHINC
 40
0.1
  9
$FILLETRAD
 40
0.5
  9
$AUNITS
 70
     0
  9
$AUPREC
 70
     0
  9
$MENU
  1
.
  9
$ELEVATION
 40
0.0
  9
$PELEVATION
 40
0.0
  9
$THICKNESS
 40
0.0
  9
$LIMCHECK
 70
     0
  9
$BLIPMODE
 70
     0
  9
$CHAMFERA
 40
0.5
  9
$CHAMFERB
 40
0.5
  9
$CHAMFERC
 40
1.0
  9
$CHAMFERD
 40
0.0
  9
$SKPOLY
 70
     0
  9
$TDCREATE
 40
2452314.629093287
  9
$TDUPDATE
 40
2452646.444572222
  9
$TDINDWG
 40
0.0220896991
  9
$TDUSRTIMER
 40
0.0220896991
  9
$USRTIMER
 70
     1
  9
$ANGBASE
 50
0.0
  9
$ANGDIR
 70
     0
  9
$PDMODE
 70
     0
  9
$PDSIZE
 40
0.0
  9
$PLINEWID
 40
0.0
  9
$COORDS
 70
     1
  9
$SPLFRAME
 70
     0
  9
$SPLINETYPE
 70
     6
  9
$SPLINESEGS
 70
     8
  9
$ATTDIA
 70
     1
  9
$ATTREQ
 70
     1
  9
$HANDLING
 70
-16383
  9
$HANDSEED
  5
423
  9
$SURFTAB1
 70
     6
  9
$SURFTAB2
 70
     6
  9
$SURFTYPE
 70
     6
  9
$SURFU
 70
     6
  9
$SURFV
 70
     6
  9
$UCSNAME
  2

  9
$UCSORG
 10
0.0
 20
0.0
 30
0.0
  9
$UCSXDIR
 10
1.0
 20
0.0
 30
0.0
  9
$UCSYDIR
 10
0.0
 20
1.0
 30
0.0
  9
$PUCSNAME
  2

  9
$PUCSORG
 10
0.0
 20
0.0
 30
0.0
  9
$PUCSXDIR
 10
1.0
 20
0.0
 30
0.0
  9
$PUCSYDIR
 10
0.0
 20
1.0
 30
0.0
  9
$USERI1
 70
     0
  9
$USERI2
 70
     0
  9
$USERI3
 70
     0
  9
$USERI4
 70
     0
  9
$USERI5
 70
     0
  9
$USERR1
 40
0.0
  9
$USERR2
 40
0.0
  9
$USERR3
 40
0.0
  9
$USERR4
 40
0.0
  9
$USERR5
 40
0.0
  9
$WORLDVIEW
 70
     1
  9
$SHADEDGE
 70
     3
  9
$SHADEDIF
 70
    70
  9
$TILEMODE
 70
     1
  9
$MAXACTVP
 70
    64
  9
$PINSBASE
 10
0.0
 20
0.0
 30
0.0
  9
$PLIMCHECK
 70
     0
  9
$PEXTMIN
 10
1.000000000000000E+20
 20
1.000000000000000E+20
 30
1.000000000000000E+20
  9
$PEXTMAX
 10
-1.000000000000000E+20
 20
-1.000000000000000E+20
 30
-1.000000000000000E+20
  9
$PLIMMIN
 10
0.0
 20
0.0
  9
$PLIMMAX
 10
12.0
 20
9.0
  9
$UNITMODE
 70
     0
  9
$VISRETAIN
 70
     1
  9
$PLINEGEN
 70
     0
  9
$PSLTSCALE
 70
     1
  9
$TREEDEPTH
 70
  3020
  9
$PICKSTYLE
 70
     1
  9
$CMLSTYLE
  2
STANDARD
  9
$CMLJUST
 70
     0
  9
$CMLSCALE
 40
1.0
  9
$PROXYGRAPHICS
 70
     1
  9
$MEASUREMENT
 70
     0
  0
ENDSEC
  0
SECTION
  2
CLASSES
  0
CLASS
  1
ACDBDICTIONARYWDFLT
  2
AcDbDictionaryWithDefault
  3
AutoCAD 2000
 90
        0
280
     0
281
     0
  0
CLASS
  1
ACDBPLACEHOLDER
  2
AcDbPlaceHolder
  3
AutoCAD 2000
 90
        0
280
     0
281
     0
  0
CLASS
  1
LAYOUT
  2
AcDbLayout
  3
AutoCAD 2000
 90
        0
280
     0
281
     0
  0
CLASS
  1
LONG_TRANSACTION
  2
AcDbLongTransaction
  3
AutoCAD 2000
 90
        0
280
     0
281
     0
  0
CLASS
  1
LWPOLYLINE
  2
AcDbPolyline
  3
AutoCAD 2000
 90
        0
280
     0
281
     1
  0
CLASS
  1
HATCH
  2
AcDbHatch
  3
AutoCAD 2000
 90
        0
280
     0
281
     1
  0
CLASS
  1
XRECORD
  2
AcDbXrecord
  3
AutoCAD 2000
 90
        0
280
     0
281
     0
  0
ENDSEC
  0
SECTION
  2
TABLES
  0
TABLE
  2
VPORT
  5
8
330
0
100
AcDbSymbolTable
 70
     4
  0
VPORT
  5
3FC
330
8
100
AcDbSymbolTableRecord
100
AcDbViewportTableRecord
  2
*ACTIVE
 70
     0
 10
0.0
 20
0.0
 11
1.0
 21
1.0
 12
6.581321473842802
 22
5.283088231257247
 13
0.0
 23
0.0
 14
0.5
 24
0.5
 15
0.5
 25
0.5
 16
0.0
 26
0.0
 36
1.0
 17
0.0
 27
0.0
 37
0.0
 40
8.99999999580908
 41
1.462515883100381
 42
50.0
 43
0.0
 44
0.0
 50
0.0
 51
0.0
 71
     0
 72
   100
 73
     1
 74
     3
 75
     0
 76
     0
 77
     0
 78
     0
  0
ENDTAB
  0
TABLE
  2
LTYPE
  5
5
330
0
100
AcDbSymbolTable
 70
     1
  0
LTYPE
  5
14
330
5
100
AcDbSymbolTableRecord
100
AcDbLinetypeTableRecord
  2
BYBLOCK
 70
     0
  3

 72
    65
 73
     0
 40
0.0
  0
LTYPE
  5
15
330
5
100
AcDbSymbolTableRecord
100
AcDbLinetypeTableRecord
  2
BYLAYER
 70
     0
  3

 72
    65
 73
     0
 40
0.0
  0
LTYPE
  5
16
330
5
100
AcDbSymbolTableRecord
100
AcDbLinetypeTableRecord
  2
CONTINUOUS
 70
     0
  3
Solid line
 72
    65
 73
     0
 40
0.0
  0
ENDTAB
  0
TABLE
  2
LAYER
  5
2
330
0
100
AcDbSymbolTable
 70
     4
  0
LAYER
  5
10
330
2
100
AcDbSymbolTableRecord
100
AcDbLayerTableRecord
  2
0
 70
     0
 62
     7
  6
CONTINUOUS
  0
LAYER
  5
34
330
2
100
AcDbSymbolTableRecord
100
AcDbLayerTableRecord
  2
L
 70
     0
 62
     7
  6
CONTINUOUS
  0
LAYER
  5
45
330
2
100
AcDbSymbolTableRecord
100
AcDbLayerTableRecord
  2
DEFPOINTS
 70
     0
 62
     7
  6
CONTINUOUS
  0
LAYER
  5
88
330
2
100
AcDbSymbolTableRecord
100
AcDbLayerTableRecord
  2
TX
 70
     0
 62
   150
  6
CONTINUOUS
  0
ENDTAB
  0
TABLE
  2
STYLE
  5
3
330
0
100
AcDbSymbolTable
 70
     3
  0
STYLE
  5
11
330
3
100
AcDbSymbolTableRecord
100
AcDbTextStyleTableRecord
  2
STANDARD
 70
     0
 40
0.0
 41
1.0
 50
0.0
 71
     0
 42
0.2
  3
txt
  4

  0
STYLE
  5
35
330
3
100
AcDbSymbolTableRecord
100
AcDbTextStyleTableRecord
  2
REG
 70
     0
 40
0.0
 41
1.0
 50
0.0
 71
     0
 42
0.09375
  3
E:\R13\com\fonts\ARCHITXT.SHX
  4

  0
STYLE
  5
36
330
3
100
AcDbSymbolTableRecord
100
AcDbTextStyleTableRecord
  2
DIMTXT
 70
     0
 40
0.0
 41
1.0
 50
0.0
 71
     0
 42
1.125
  3
archt.shx
  4

  0
ENDTAB
  0
TABLE
  2
VIEW
  5
6
330
0
100
AcDbSymbolTable
 70
     0
  0
ENDTAB
  0
TABLE
  2
UCS
  5
7
330
0
100
AcDbSymbolTable
 70
     0
  0
ENDTAB
  0
TABLE
  2
APPID
  5
9
330
0
100
AcDbSymbolTable
 70
     1
  0
APPID
  5
12
330
9
100
AcDbSymbolTableRecord
100
AcDbRegAppTableRecord
  2
ACAD
 70
     0
  0
ENDTAB
  0
TABLE
  2
DIMSTYLE
  5
A
330
0
100
AcDbSymbolTable
 70
    10
  0
DIMSTYLE
105
27
102
{ACAD_REACTORS
330
C5
330
D3
102
}
330
A
100
AcDbSymbolTableRecord
100
AcDbDimStyleTableRecord
  2
STANDARD
 70
     0
  3

  4

  5

  6

  7

 40
1.0
 41
0.18
 42
0.0625
 43
0.38
 44
0.18
 45
0.0
 46
0.0
 47
0.0
 48
0.0
140
0.18
141
0.09
142
0.0
143
25.4
144
1.0
145
0.0
146
1.0
147
0.09
 71
     0
 72
     0
 73
     1
 74
     1
 75
     0
 76
     0
 77
     0
 78
     0
170
     0
171
     2
172
     0
173
     0
174
     0
175
     0
176
     0
177
     0
178
     0
270
     2
271
     2
272
     2
273
     2
274
     2
340
11
275
     0
280
     0
281
     0
282
     0
283
     1
284
     0
285
     0
286
     0
287
     3
288
     0
  0
DIMSTYLE
105
37
330
A
100
AcDbSymbolTableRecord
100
AcDbDimStyleTableRecord
  2
1
 70
     0
  3

  4

  5

  6

  7

 40
1.0
 41
1.125
 42
0.5
 43
0.375
 44
1.19921875
 45
0.0
 46
0.5
 47
0.0
 48
0.0
140
1.125
141
0.125
142
0.0
143
25.4
144
1.0
145
0.0
146
0.8
147
0.5625
 71
     0
 72
     0
 73
     0
 74
     0
 75
     0
 76
     0
 77
     1
 78
     3
170
     0
171
     2
172
     1
173
     0
174
     1
175
     0
176
   133
177
   133
178
   150
270
     2
271
     3
272
     3
273
     2
274
     2
340
36
275
     0
280
     0
281
     0
282
     0
283
     1
284
     0
285
     0
286
     0
287
     4
288
     0
  0
DIMSTYLE
105
38
330
A
100
AcDbSymbolTableRecord
100
AcDbDimStyleTableRecord
  2
1$2
 70
     0
  3

  4

  5
DOTSMALL
  6

  7

 40
1.0
 41
1.5
 42
0.5
 43
0.375
 44
1.19921875
 45
0.0
 46
0.5
 47
0.0
 48
0.0
140
0.75
141
0.125
142
0.0
143
25.4
144
1.0
145
0.0
146
0.8
147
0.5625
 71
     0
 72
     0
 73
     0
 74
     0
 75
     0
 76
     0
 77
     1
 78
     3
170
     0
171
     2
172
     1
173
     0
174
     1
175
     0
176
   133
177
   133
178
   150
270
     2
271
     3
272
     3
273
     2
274
     2
340
36
275
     0
280
     0
281
     0
282
     0
283
     1
284
     0
285
     0
286
     0
287
     4
288
     0
  0
DIMSTYLE
105
39
330
A
100
AcDbSymbolTableRecord
100
AcDbDimStyleTableRecord
  2
1$4
 70
     0
  3

  4

  5

  6

  7
DOTSMALL
 40
1.0
 41
1.5
 42
0.5
 43
0.375
 44
1.19921875
 45
0.0
 46
0.5
 47
0.0
 48
0.0
140
0.75
141
0.125
142
0.0
143
25.4
144
1.0
145
0.0
146
0.8
147
0.5625
 71
     0
 72
     0
 73
     0
 74
     0
 75
     0
 76
     0
 77
     1
 78
     3
170
     0
171
     2
172
     1
173
     1
174
     1
175
     0
176
   133
177
   133
178
   150
270
     2
271
     3
272
     3
273
     2
274
     2
340
36
275
     0
280
     0
281
     0
282
     0
283
     1
284
     0
285
     0
286
     0
287
     4
288
     0
  0
DIMSTYLE
105
3A
330
A
100
AcDbSymbolTableRecord
100
AcDbDimStyleTableRecord
  2
1$3
 70
     0
  3

  4

  5
DOTSMALL
  6

  7

 40
1.0
 41
1.5
 42
0.5
 43
0.375
 44
1.19921875
 45
0.0
 46
0.5
 47
0.0
 48
0.0
140
0.75
141
0.125
142
0.0
143
25.4
144
1.0
145
0.0
146
0.8
147
0.5625
 71
     0
 72
     0
 73
     0
 74
     0
 75
     0
 76
     0
 77
     1
 78
     3
170
     0
171
     2
172
     1
173
     0
174
     1
175
     0
176
   133
177
   133
178
   150
270
     2
271
     3
272
     3
273
     2
274
     2
340
36
275
     0
280
     0
281
     0
282
     0
283
     1
284
     0
285
     0
286
     0
287
     4
288
     0
  0
DIMSTYLE
105
3B
330
A
100
AcDbSymbolTableRecord
100
AcDbDimStyleTableRecord
  2
1$7
 70
     0
  3

  4

  5

  6

  7

 40
1.0
 41
1.0
 42
0.5
 43
0.375
 44
1.19921875
 45
0.0
 46
0.5
 47
0.0
 48
0.0
140
0.75
141
0.125
142
0.0
143
25.4
144
1.0
145
0.0
146
0.8
147
0.5625
 71
     0
 72
     0
 73
     0
 74
     0
 75
     0
 76
     0
 77
     1
 78
     3
170
     0
171
     2
172
     1
173
     0
174
     1
175
     0
176
   133
177
   133
178
   150
270
     2
271
     3
272
     3
273
     2
274
     2
340
36
275
     0
280
     0
281
     0
282
     0
283
     1
284
     0
285
     0
286
     0
287
     4
288
     0
  0
DIMSTYLE
105
B5
330
A
100
AcDbSymbolTableRecord
100
AcDbDimStyleTableRecord
  2
STANDARD$2
 70
     0
  3

  4

  5
DOTSMALL
  6

  7

 40
1.0
 41
1.5
 42
0.5
 43
0.375
 44
0.5
 45
0.0
 46
0.5
 47
0.0
 48
0.0
140
0.75
141
0.125
142
0.0
143
25.4
144
1.0
145
0.0
146
0.8
147
0.25
 71
     0
 72
     0
 73
     0
 74
     0
 75
     0
 76
     0
 77
     1
 78
     4
170
     0
171
     2
172
     1
173
     0
174
     1
175
     0
176
   133
177
   133
178
   150
270
     2
271
     3
272
     3
273
     2
274
     2
340
36
275
     0
280
     0
281
     0
282
     0
283
     1
284
     0
285
     0
286
     0
287
     3
288
     0
  0
DIMSTYLE
105
B6
330
A
100
AcDbSymbolTableRecord
100
AcDbDimStyleTableRecord
  2
STANDARD$4
 70
     0
  3

  4

  5

  6
DOTSMALL
  7
DOTSMALL
 40
1.0
 41
1.5
 42
0.5
 43
0.375
 44
0.5
 45
0.0
 46
0.5
 47
0.0
 48
0.0
140
0.75
141
0.125
142
0.0
143
25.4
144
1.0
145
0.0
146
0.8
147
0.25
 71
     0
 72
     0
 73
     1
 74
     1
 75
     0
 76
     0
 77
     0
 78
     4
170
     0
171
     2
172
     1
173
     1
174
     1
175
     0
176
   133
177
   133
178
   150
270
     2
271
     3
272
     3
273
     2
274
     2
340
36
275
     0
280
     0
281
     0
282
     0
283
     1
284
     0
285
     0
286
     0
287
     3
288
     1
  0
DIMSTYLE
105
B7
330
A
100
AcDbSymbolTableRecord
100
AcDbDimStyleTableRecord
  2
STANDARD$3
 70
     0
  3

  4

  5
DOTSMALL
  6

  7

 40
1.0
 41
1.5
 42
0.5
 43
0.375
 44
0.5
 45
0.0
 46
0.5
 47
0.0
 48
0.0
140
0.75
141
0.125
142
0.0
143
25.4
144
1.0
145
0.0
146
0.8
147
0.25
 71
     0
 72
     0
 73
     1
 74
     1
 75
     0
 76
     0
 77
     0
 78
     4
170
     0
171
     2
172
     1
173
     0
174
     1
175
     0
176
   133
177
   133
178
   150
270
     2
271
     3
272
     3
273
     2
274
     2
340
36
275
     0
280
     0
281
     0
282
     0
283
     1
284
     0
285
     0
286
     0
287
     3
288
     1
  0
DIMSTYLE
105
B8
330
A
100
AcDbSymbolTableRecord
100
AcDbDimStyleTableRecord
  2
STANDARD$7
 70
     0
  3

  4

  5
DOTSMALL
  6

  7

 40
1.0
 41
1.5
 42
0.5
 43
0.375
 44
0.5
 45
0.0
 46
0.5
 47
0.0
 48
0.0
140
0.75
141
0.125
142
0.0
143
25.4
144
1.0
145
0.0
146
0.8
147
0.25
 71
     0
 72
     0
 73
     0
 74
     0
 75
     0
 76
     0
 77
     1
 78
     4
170
     0
171
     2
172
     1
173
     0
174
     1
175
     0
176
   133
177
   133
178
   150
270
     2
271
     3
272
     3
273
     2
274
     2
340
36
275
     0
280
     0
281
     0
282
     0
283
     1
284
     0
285
     0
286
     0
287
     3
288
     0
  0
ENDTAB
  0
TABLE
  2
BLOCK_RECORD
  5
1
330
0
100
AcDbSymbolTable
 70
     5
  0
BLOCK_RECORD
  5
1F
102
{ACAD_XDICTIONARY
360
41F
102
}
330
1
100
AcDbSymbolTableRecord
100
AcDbBlockTableRecord
  2
*MODEL_SPACE
  0
BLOCK_RECORD
  5
1B
102
{ACAD_XDICTIONARY
360
41D
102
}
330
1
100
AcDbSymbolTableRecord
100
AcDbBlockTableRecord
  2
*PAPER_SPACE
  0
BLOCK_RECORD
  5
2B
330
1
100
AcDbSymbolTableRecord
100
AcDbBlockTableRecord
  2
_DOT
  0
BLOCK_RECORD
  5
30
330
1
100
AcDbSymbolTableRecord
100
AcDbBlockTableRecord
  2
_DOTSMALL
  0
BLOCK_RECORD
  5
C6
330
1
100
AcDbSymbolTableRecord
100
AcDbBlockTableRecord
  2
*D3
  0
BLOCK_RECORD
  5
D4
330
1
100
AcDbSymbolTableRecord
100
AcDbBlockTableRecord
  2
*D4
  0
ENDTAB
  0
ENDSEC
  0
SECTION
  2
BLOCKS
  0
BLOCK
  5
20
330
1F
100
AcDbEntity
  8
0
100
AcDbBlockBegin
  2
*MODEL_SPACE
 70
     0
 10
0.0
 20
0.0
 30
0.0
  3
*MODEL_SPACE
  1

  0
ENDBLK
  5
21
330
1F
100
AcDbEntity
  8
0
100
AcDbBlockEnd
  0
BLOCK
  5
1C
330
1B
100
AcDbEntity
 67
     1
  8
0
100
AcDbBlockBegin
  2
*PAPER_SPACE
 70
     0
 10
0.0
 20
0.0
 30
0.0
  3
*PAPER_SPACE
  1

  0
ENDBLK
  5
1D
330
1B
100
AcDbEntity
 67
     1
  8
0
100
AcDbBlockEnd
  0
BLOCK
  5
2E
330
2B
100
AcDbEntity
  8
0
100
AcDbBlockBegin
  2
_DOT
 70
     0
 10
0.0
 20
0.0
 30
0.0
  3
_DOT
  1

  0
LWPOLYLINE
  5
2C
330
2B
100
AcDbEntity
  8
L
 62
     0
100
AcDbPolyline
 90
        2
 70
     1
 43
0.5
 10
-0.25
 20
0.0
 42
1.0
 10
0.25
 20
0.0
 42
1.0
  0
LINE
  5
2D
330
2B
100
AcDbEntity
  8
L
 62
     0
100
AcDbLine
 10
-0.5
 20
0.0
 30
0.0
 11
-1.0
 21
0.0
 31
0.0
  0
ENDBLK
  5
2F
330
2B
100
AcDbEntity
  8
0
100
AcDbBlockEnd
  0
BLOCK
  5
32
330
30
100
AcDbEntity
  8
0
 48
0.116666
100
AcDbBlockBegin
  2
_DOTSMALL
 70
     0
 10
0.0
 20
0.0
 30
0.0
  3
_DOTSMALL
  1

  0
LWPOLYLINE
  5
31
330
30
100
AcDbEntity
  8
0
  6
BYBLOCK
 62
     0
100
AcDbPolyline
 90
        2
 70
     1
 43
0.5
 10
-0.0625
 20
0.0
 42
1.0
 10
0.0625
 20
0.0
 42
1.0
  0
ENDBLK
  5
33
330
30
100
AcDbEntity
  8
0
 48
0.116666
100
AcDbBlockEnd
  0
BLOCK
  5
D1
330
C6
100
AcDbEntity
  8
0
100
AcDbBlockBegin
  2
*D3
 70
     1
 10
0.0
 20
0.0
 30
0.0
  3
*D3
  1

  0
LINE
  5
C7
330
C6
100
AcDbEntity
  8
0
 62
     0
100
AcDbLine
 10
5.266976435902723
 20
6.412509689616552
 30
0.0
 11
5.266976435902723
 21
8.029795700811281
 31
0.0
  0
LINE
  5
C8
330
C6
100
AcDbEntity
  8
0
 62
     0
100
AcDbLine
 10
7.266976435904997
 20
6.412509689616552
 30
0.0
 11
7.266976435904997
 21
8.029795700811281
 31
0.0
  0
LINE
  5
C9
330
C6
100
AcDbEntity
  8
0
 62
     0
100
AcDbLine
 10
5.446976435902723
 20
7.849795700811281
 30
0.0
 11
5.93697643590386
 21
7.849795700811281
 31
0.0
  0
LINE
  5
CA
330
C6
100
AcDbEntity
  8
0
 62
     0
100
AcDbLine
 10
7.086976435904997
 20
7.849795700811281
 30
0.0
 11
6.59697643590386
 21
7.849795700811281
 31
0.0
  0
SOLID
  5
CB
330
C6
100
AcDbEntity
  8
0
 62
     0
100
AcDbTrace
 10
5.446976435902723
 20
7.879795700811281
 30
0.0
 11
5.446976435902723
 21
7.819795700811281
 31
0.0
 12
5.266976435902723
 22
7.849795700811281
 32
0.0
 13
5.266976435902723
 23
7.849795700811281
 33
0.0
  0
SOLID
  5
CC
330
C6
100
AcDbEntity
  8
0
 62
     0
100
AcDbTrace
 10
7.086976435904997
 20
7.879795700811281
 30
0.0
 11
7.086976435904997
 21
7.819795700811281
 31
0.0
 12
7.266976435904997
 22
7.849795700811281
 32
0.0
 13
7.266976435904997
 23
7.849795700811281
 33
0.0
  0
MTEXT
  5
CD
330
C6
100
AcDbEntity
  8
0
 62
     0
100
AcDbMText
 10
6.26697643590386
 20
7.849795700811281
 30
0.0
 40
0.18
 41
0.0
 71
     5
 72
     1
  1
\A1;2.00
1001
ACAD
1000
MTEXTBEGIN
1070
    73
1070
     1
1070
    44
1040
1.0
1070
    74
1070
     0
1000
MTEXTEND
  0
POINT
  5
CE
330
C6
100
AcDbEntity
  8
DEFPOINTS
 62
     0
100
AcDbPoint
 10
5.266976435902723
 20
6.350009689616552
 30
0.0
  0
POINT
  5
CF
330
C6
100
AcDbEntity
  8
DEFPOINTS
 62
     0
100
AcDbPoint
 10
7.266976435904997
 20
6.350009689616552
 30
0.0
  0
POINT
  5
D0
330
C6
100
AcDbEntity
  8
DEFPOINTS
 62
     0
100
AcDbPoint
 10
7.266976435904997
 20
7.849795700811281
 30
0.0
  0
ENDBLK
  5
D2
330
C6
100
AcDbEntity
  8
0
100
AcDbBlockEnd
  0
BLOCK
  5
DF
330
D4
100
AcDbEntity
  8
0
100
AcDbBlockBegin
  2
*D4
 70
     1
 10
0.0
 20
0.0
 30
0.0
  3
*D4
  1

  0
LINE
  5
D5
330
D4
100
AcDbEntity
  8
0
 62
     0
100
AcDbLine
 10
6.06804209794349
 20
7.213617364609985
 30
0.0
 11
4.464861569919836
 21
7.213617364609985
 31
0.0
  0
LINE
  5
D6
330
D4
100
AcDbEntity
  8
0
 62
     0
100
AcDbLine
 10
5.224476435903159
 20
6.108293960864482
 30
0.0
 11
4.464861569919836
 21
6.108293960864482
 31
0.0
  0
LINE
  5
D7
330
D4
100
AcDbEntity
  8
0
 62
     0
100
AcDbLine
 10
4.644861569919836
 20
7.033617364609986
 30
0.0
 11
4.644861569919836
 21
6.840955662737234
 31
0.0
  0
LINE
  5
D8
330
D4
100
AcDbEntity
  8
0
 62
     0
100
AcDbLine
 10
4.644861569919836
 20
6.288293960864482
 30
0.0
 11
4.644861569919836
 21
6.480955662737234
 31
0.0
  0
SOLID
  5
D9
330
D4
100
AcDbEntity
  8
0
 62
     0
100
AcDbTrace
 10
4.614861569919836
 20
7.033617364609986
 30
0.0
 11
4.674861569919836
 21
7.033617364609986
 31
0.0
 12
4.644861569919836
 22
7.213617364609985
 32
0.0
 13
4.644861569919836
 23
7.213617364609985
 33
0.0
  0
SOLID
  5
DA
330
D4
100
AcDbEntity
  8
0
 62
     0
100
AcDbTrace
 10
4.614861569919836
 20
6.288293960864482
 30
0.0
 11
4.674861569919836
 21
6.288293960864482
 31
0.0
 12
4.644861569919836
 22
6.108293960864482
 32
0.0
 13
4.644861569919836
 23
6.108293960864482
 33
0.0
  0
MTEXT
  5
DB
330
D4
100
AcDbEntity
  8
0
 62
     0
100
AcDbMText
 10
4.644861569919834
 20
6.660955662737235
 30
0.0
 40
0.18
 41
0.0
 71
     5
 72
     1
  1
\A1;1.11
1001
ACAD
1000
MTEXTBEGIN
1070
    73
1070
     1
1070
    44
1040
1.0
1070
    74
1070
     0
1000
MTEXTEND
  0
POINT
  5
DC
330
D4
100
AcDbEntity
  8
DEFPOINTS
 62
     0
100
AcDbPoint
 10
6.13054209794349
 20
7.213617364609985
 30
0.0
  0
POINT
  5
DD
330
D4
100
AcDbEntity
  8
DEFPOINTS
 62
     0
100
AcDbPoint
 10
5.286976435903159
 20
6.108293960864482
 30
0.0
  0
POINT
  5
DE
330
D4
100
AcDbEntity
  8
DEFPOINTS
 62
     0
100
AcDbPoint
 10
4.644861569919836
 20
6.108293960864482
 30
0.0
  0
ENDBLK
  5
E0
330
D4
100
AcDbEntity
  8
0
100
AcDbBlockEnd
  0
ENDSEC
  0
SECTION
  2
ENTITIES
  0
LWPOLYLINE
  5
C1
330
1F
100
AcDbEntity
  8
L
 62
     5
 48
0.116666
100
AcDbPolyline
 90
        2
 70
     0
 43
0.028125
 10
4.611801215883126
 20
5.044186504533097
 10
7.85265143140031
 20
5.044186504533097
  0
TEXT
  5
C2
330
1F
100
AcDbEntity
  8
L
 62
     3
 48
0.116666
100
AcDbText
 10
4.705537058564225
 20
5.137922347214082
 30
0.0
 40
0.140625
  1
2" BEVELED FRAME #1990
  7
REG
100
AcDbText
  0
TEXT
  5
C3
330
1F
100
AcDbEntity
  8
TX
 48
0.116666
100
AcDbText
 10
4.705537058564225
 20
4.856700661852112
 30
0.0
 40
0.09375
  1
SCALE : 1" = 1"
  7
REG
 11
4.705537058564225
 21
4.950450661852112
 31
0.0
100
AcDbText
 73
     3
  0
DIMENSION
  5
C5
330
1F
100
AcDbEntity
  8
0
100
AcDbDimension
  2
*D3
 10
7.266976435904997
 20
7.849795700811281
 30
0.0
 11
6.26697643590386
 21
7.849795700811281
 31
0.0
 70
    32
  3
STANDARD
100
AcDbAlignedDimension
 13
5.266976435902723
 23
6.350009689616552
 33
0.0
 14
7.266976435904997
 24
6.350009689616552
 34
0.0
100
AcDbRotatedDimension
  0
DIMENSION
  5
D3
330
1F
100
AcDbEntity
  8
0
100
AcDbDimension
  2
*D4
 10
4.644861569919836
 20
6.108293960864482
 30
0.0
 11
4.644861569919834
 21
6.660955662737235
 31
0.0
 70
    32
  3
STANDARD
100
AcDbAlignedDimension
 13
6.13054209794349
 23
7.213617364609985
 33
0.0
 14
5.286976435903159
 24
6.108293960864482
 34
0.0
 50
90.0
100
AcDbRotatedDimension
  0
LWPOLYLINE
  5
311
330
1F
100
AcDbEntity
  8
L
 62
     3
100
AcDbPolyline
 90
      157
 70
     1
 43
0.0
 10
6.337564626354595
 20
7.006832220368021
 10
6.337564626354595
 20
7.006832220368021
 10
6.340672516700344
 20
7.005999463659404
 10
6.340672516700344
 20
7.005999463659404
 42
-0.4931454260324897
 10
6.346744580286884
 20
6.99134020539638
 10
6.346744580286884
 20
6.99134020539638
 10
6.331492562768062
 20
6.964922936136336
 10
6.331492562768062
 20
6.964922936136336
 42
0.4931454260263685
 10
6.337564626354595
 20
6.950263677873561
 10
6.337564626354595
 20
6.950263677873561
 10
6.340672516700792
 20
6.949430921164689
 10
6.340672516700792
 20
6.949430921164689
 42
-0.4931454259672452
 10
6.346744580286884
 20
6.934771662902374
 10
6.346744580286884
 20
6.934771662902374
 10
6.331492562768061
 20
6.908354393640285
 10
6.331492562768061
 20
6.908354393640285
 42
0.4931454260224187
 10
6.337564626354595
 20
6.893695135377736
 10
6.337564626354595
 20
6.893695135377736
 10
6.340672516700351
 20
6.892862378669369
 10
6.340672516700351
 20
6.892862378669369
 42
-0.4931454260074646
 10
6.346744580286884
 20
6.878203120406322
 10
6.346744580286884
 20
6.878203120406322
 10
6.331492562768016
 20
6.851785851145851
 10
6.331492562768016
 20
6.851785851145851
 42
0.4931454260303426
 10
6.337564626354595
 20
6.837126592882821
 10
6.337564626354595
 20
6.837126592882821
 10
6.34067251670035
 20
6.836293836174907
 10
6.34067251670035
 20
6.836293836174907
 42
-0.4931454260364722
 10
6.346744580286884
 20
6.821634577911634
 10
6.346744580286884
 20
6.821634577911634
 10
6.331492562767607
 20
6.795217308650681
 10
6.331492562767607
 20
6.795217308650681
 42
0.4931454260263685
 10
6.33756462635414
 20
6.780558050387906
 10
6.33756462635414
 20
6.780558050387906
 10
6.34067251670033
 20
6.779725293679461
 10
6.34067251670033
 20
6.779725293679461
 42
-0.4931454260263452
 10
6.346744580286884
 20
6.765066035416719
 10
6.346744580286884
 20
6.765066035416719
 10
6.331492562768012
 20
6.738648766155795
 10
6.331492562768012
 20
6.738648766155795
 42
0.4931454260163047
 10
6.337564626354595
 20
6.723989507893445
 10
6.337564626354595
 20
6.723989507893445
 10
6.340672516700796
 20
6.723156751184589
 10
6.340672516700796
 20
6.723156751184589
 42
-0.4931454259932674
 10
6.346744580286429
 20
6.708497492922258
 10
6.346744580286429
 20
6.708497492922258
 10
6.33149256276808
 20
6.682080223660613
 10
6.33149256276808
 20
6.682080223660613
 42
0.4931454259858594
 10
6.33756462635414
 20
6.667420965398076
 10
6.33756462635414
 20
6.667420965398076
 10
6.345848897602303
 20
6.665201201606524
 10
6.345848897602303
 20
6.665201201606524
 42
-0.339454258839994
 10
6.353260707150855
 20
6.65554194334383
 10
6.353260707150855
 20
6.65554194334383
 10
6.353260707150401
 20
6.628617408829921
 42
-0.4142135623714302
 10
6.313260707150437
 20
6.588617408830184
 10
6.220692164657283
 20
6.588617408830184
 42
-0.4142135623705978
 10
6.180692164657092
 20
6.628617408829921
 10
6.180692164657092
 20
6.628617408829921
 10
6.180692164656886
 20
6.65554194334383
 10
6.180692164656886
 20
6.65554194334383
 42
-0.3394542588399766
 10
6.188103974205422
 20
6.665201201606503
 10
6.188103974205422
 20
6.665201201606503
 10
6.196388245453574
 20
6.667420965398094
 10
6.196388245453574
 20
6.667420965398094
 42
0.4931454259858594
 10
6.202460309039668
 20
6.68208022366063
 10
6.202460309039668
 20
6.68208022366063
 10
6.187208291521294
 20
6.70849749292226
 10
6.187208291521294
 20
6.70849749292226
 42
-0.4931454259932405
 10
6.193280355106924
 20
6.723156751184585
 10
6.193280355106924
 20
6.723156751184585
 10
6.196388245453113
 20
6.72398950789349
 10
6.196388245453113
 20
6.72398950789349
 42
0.4931454260163286
 10
6.202460309039668
 20
6.738648766155773
 10
6.202460309039668
 20
6.738648766155773
 10
6.187208291520845
 20
6.765066035416724
 10
6.187208291520845
 20
6.765066035416724
 42
-0.4931454260263454
 10
6.193280355107379
 20
6.779725293679501
 10
6.193280355107379
 20
6.779725293679501
 10
6.196388245453569
 20
6.780558050387946
 10
6.196388245453569
 20
6.780558050387946
 42
0.4931454260263452
 10
6.202460309040123
 20
6.795217308650688
 10
6.202460309040123
 20
6.795217308650688
 10
6.187208291520895
 20
6.821634577911668
 10
6.187208291520895
 20
6.821634577911668
 42
-0.4931454260324897
 10
6.193280355107379
 20
6.836293836174643
 10
6.193280355107379
 20
6.836293836174643
 10
6.196388245453114
 20
6.837126592882861
 10
6.196388245453114
 20
6.837126592882861
 42
0.4931454260303359
 10
6.202460309039668
 20
6.85178585114583
 10
6.202460309039668
 20
6.85178585114583
 10
6.187208291520824
 20
6.878203120406316
 10
6.187208291520824
 20
6.878203120406316
 42
-0.4931454260074646
 10
6.193280355107379
 20
6.892862378669331
 10
6.193280355107379
 20
6.892862378669331
 10
6.196388245453127
 20
6.893695135377726
 10
6.196388245453127
 20
6.893695135377726
 42
0.493145426022395
 10
6.202460309039668
 20
6.908354393640291
 10
6.202460309039668
 20
6.908354393640291
 10
6.187208291521212
 20
6.934771662902556
 10
6.187208291521212
 20
6.934771662902556
 42
-0.4931454259682541
 10
6.193280355106924
 20
6.949430921164928
 10
6.193280355106924
 20
6.949430921164928
 10
6.196388245453114
 20
6.950263677873601
 10
6.196388245453114
 20
6.950263677873601
 42
0.4931454260263452
 10
6.202460309039668
 20
6.964922936136343
 10
6.202460309039668
 20
6.964922936136343
 10
6.187208291520895
 20
6.991340205396413
 10
6.187208291520895
 20
6.991340205396413
 42
-0.4931454260324897
 10
6.193280355107379
 20
7.005999463659389
 10
6.193280355107379
 20
7.005999463659389
 10
6.196388245453112
 20
7.006832220367842
 10
6.196388245453112
 20
7.006832220367842
 42
0.4931454260377221
 10
6.202460309039214
 20
7.021491478630576
 10
6.202460309039214
 20
7.021491478630576
 10
6.18720829151987
 20
7.047908747891717
 10
6.18720829151987
 20
7.047908747891717
 42
-0.4931454260388809
 10
6.19328035510647
 20
7.062568006154531
 10
6.19328035510647
 20
7.062568006154531
 10
6.196388245453582
 20
7.063400762863382
 10
6.196388245453582
 20
7.063400762863382
 42
0.4931454260148689
 10
6.202460309039668
 20
7.078060021126173
 10
6.202460309039668
 20
7.078060021126173
 10
6.184528799596812
 20
7.109118306537466
 10
6.184528799596812
 20
7.109118306537466
 42
-0.3394542588678393
 10
6.186117985822637
 20
7.121189374349494
 10
6.186117985822637
 20
7.121189374349494
 10
6.201875566445533
 20
7.136946954972405
 10
6.201875566445533
 20
7.136946954972405
 42
0.4154459265089496
 10
6.20184576506266
 20
7.151118766905408
 10
6.20184576506266
 20
7.151118766905408
 10
6.144666687973998
 20
7.207818897072397
 10
6.144666687973998
 20
7.207818897072397
 42
0.412982271200412
 10
6.116442019492058
 20
7.207759544454045
 10
5.272834300278887
 20
6.364151825240369
 10
5.272834300278887
 20
6.364151825240369
 42
0.1989123673708603
 10
5.266976435902723
 20
6.350009689616552
 10
5.266976435902723
 20
6.350009689616552
 10
5.266976435903065
 20
6.128293960864237
 10
5.266976435903065
 20
6.128293960864237
 42
0.4142135623747599
 10
5.286976435903159
 20
6.108293960864482
 10
5.286976435903159
 20
6.108293960864482
 10
7.24697643590456
 20
6.108293960864255
 42
0.4142135623730951
 10
7.266976435904542
 20
6.128293960864237
 10
7.266976435904951
 20
6.350009689616552
 42
0.1989123673708602
 10
7.261118571528857
 20
6.364151825240394
 10
6.417510852315645
 20
7.207759544454029
 42
0.4129822712004211
 10
6.389286183833736
 20
7.207818897072382
 10
6.332107106745052
 20
7.151118766905415
 42
0.4154459265089496
 10
6.332077305362179
 20
7.136946954972398
 10
6.347834885985102
 20
7.121189374349514
 42
-0.3394542588678394
 10
6.349424072210911
 20
7.109118306537464
 10
6.331492562768059
 20
7.078060021126169
 42
0.4931454260148689
 10
6.33756462635414
 20
7.063400762863391
 10
6.340672516701245
 20
7.062568006154513
 42
-0.4931454260337269
 10
6.346744580287339
 20
7.047908747891977
 10
6.331492562768535
 20
7.021491478630559
 42
0.4931454260337662
  0
LWPOLYLINE
  5
3B1
330
1F
100
AcDbEntity
  8
L
 62
     3
100
AcDbPolyline
 90
        2
 70
     1
 43
0.0
 10
6.116442019492058
 20
7.207759544454045
 10
6.116442019492074
 20
7.207759544454029
  0
LWPOLYLINE
  5
3C0
330
1F
100
AcDbEntity
  8
L
 62
     3
100
AcDbPolyline
 90
        2
 70
     1
 43
0.0
 10
6.331492562768535
 20
7.021491478630559
 10
6.331492562768506
 20
7.021491478630576
  0
LWPOLYLINE
  5
3C2
330
1F
100
AcDbEntity
  8
L
 62
     3
100
AcDbPolyline
 90
        2
 70
     1
 43
0.0
 10
6.346744580287339
 20
7.047908747891977
 10
6.346744580287355
 20
7.047908747891967
  0
LWPOLYLINE
  5
3C4
330
1F
100
AcDbEntity
  8
L
 62
     3
100
AcDbPolyline
 90
        2
 70
     1
 43
0.0
 10
6.340672516701245
 20
7.062568006154513
 10
6.34067251670125
 20
7.062568006154531
  0
LWPOLYLINE
  5
3C6
330
1F
100
AcDbEntity
  8
L
 62
     3
100
AcDbPolyline
 90
        2
 70
     1
 43
0.0
 10
6.33756462635414
 20
7.063400762863391
 10
6.337564626354137
 20
7.063400762863382
  0
LWPOLYLINE
  5
3C8
330
1F
100
AcDbEntity
  8
L
 62
     3
100
AcDbPolyline
 90
        2
 70
     1
 43
0.0
 10
6.331492562768059
 20
7.078060021126169
 10
6.331492562768051
 20
7.078060021126173
  0
LWPOLYLINE
  5
3CA
330
1F
100
AcDbEntity
  8
L
 62
     3
100
AcDbPolyline
 90
        2
 70
     1
 43
0.0
 10
6.349424072210911
 20
7.109118306537464
 10
6.349424072210908
 20
7.109118306537466
  0
LWPOLYLINE
  5
3CC
330
1F
100
AcDbEntity
  8
L
 62
     3
100
AcDbPolyline
 90
        2
 70
     1
 43
0.0
 10
6.347834885985102
 20
7.121189374349514
 10
6.347834885985083
 20
7.121189374349494
  0
LWPOLYLINE
  5
3CF
330
1F
100
AcDbEntity
  8
L
 62
     3
100
AcDbPolyline
 90
        2
 70
     1
 43
0.0
 10
6.332077305362179
 20
7.136946954972398
 10
6.332077305362187
 20
7.136946954972405
  0
LWPOLYLINE
  5
3D1
330
1F
100
AcDbEntity
  8
L
 62
     3
100
AcDbPolyline
 90
        2
 70
     1
 43
0.0
 10
6.332107106745052
 20
7.151118766905415
 10
6.332107106745059
 20
7.151118766905408
  0
LWPOLYLINE
  5
3D2
330
1F
100
AcDbEntity
  8
L
 62
     3
100
AcDbPolyline
 90
        2
 70
     1
 43
0.0
 10
6.389286183833736
 20
7.207818897072382
 10
6.38928618383372
 20
7.207818897072397
  0
LWPOLYLINE
  5
3D4
330
1F
100
AcDbEntity
  8
L
 62
     3
100
AcDbPolyline
 90
        2
 70
     1
 43
0.0
 10
6.417510852315645
 20
7.207759544454029
 10
6.417510852315661
 20
7.207759544454045
  0
LWPOLYLINE
  5
3D7
330
1F
100
AcDbEntity
  8
L
 62
     3
100
AcDbPolyline
 90
       48
 70
     1
 43
0.0
 10
7.098258314610792
 20
6.305831335270038
 42
-0.2320082507969545
 10
7.089848381864908
 20
6.321306383342218
 10
7.089848381864909
 20
6.321306383342218
 42
0.5547590300866351
 10
6.974726066073559
 20
6.386605714698517
 10
6.974726066073559
 20
6.386605714698516
 42
-0.9999999999967629
 10
6.945164293954818
 20
6.441104353481355
 42
-0.1579645043605033
 10
7.030019093004735
 20
6.45686763054548
 42
0.7161231615596151
 10
7.04674728725268
 20
6.490841868955145
 10
6.449402842776397
 20
7.088186313125486
 10
6.449402842776396
 20
7.088186313125485
 42
0.6681786379116705
 10
6.415260707152953
 20
7.074044177502099
 10
6.415260707150299
 20
6.628617408829693
 42
-0.4142135623730951
 10
6.313260707150437
 20
6.526617408829832
 10
6.220692164657283
 20
6.526617408829832
 42
-0.4142135623727687
 10
6.118692164657307
 20
6.628617408829239
 10
6.118692164654692
 20
7.074044177502099
 42
0.6681786379116792
 10
6.084550029031386
 20
7.088186313125423
 10
5.864823132297022
 20
6.868459416503736
 10
5.843609928855801
 20
6.868459416503736
 10
5.843609928855801
 20
6.847246213073201
 10
5.487205584555102
 20
6.490841868955083
 10
5.487205584555101
 20
6.490841868955084
 42
0.7161231615596419
 10
5.503933778802985
 20
6.456867630545472
 42
-0.1579645043605035
 10
5.588788577852938
 20
6.441104353481424
 10
5.588788577852938
 20
6.441104353481423
 42
-0.9999999999967824
 10
5.559226805734133
 20
6.386605714698466
 10
5.559226805734132
 20
6.386605714698466
 42
0.5547590300870504
 10
5.444104489943113
 20
6.321306383342442
 10
5.444104489943112
 20
6.321306383342442
 42
-0.232008250796995
 10
5.435694557197111
 20
6.3058313352701
 10
5.408316072816194
 20
6.28640746423677
 42
0.9999999999999998
 10
5.454606289785932
 20
6.221160120897064
 10
5.481984774166893
 20
6.240583991930332
 42
-0.2320082507982757
 10
5.499369340815285
 20
6.24340904486524
 42
0.3412591718809165
 10
5.588525609713725
 20
6.277261089634694
 42
-1.000000000000012
 10
5.641376174739196
 20
6.244844770033449
 42
-0.0938997542697892
 10
5.606328285538151
 20
6.206262579638623
 42
0.7197680030875187
 10
5.618370013586844
 20
6.170293960863062
 10
6.915582858220876
 20
6.170293960863016
 42
0.7197680030875149
 10
6.927624586269532
 20
6.206262579638574
 42
-0.0938997542697888
 10
6.892576697068599
 20
6.244844770033495
 10
6.892576697068598
 20
6.244844770033495
 42
-1.000000000000007
 10
6.945427262093961
 20
6.277261089634674
 42
0.3412591718812277
 10
7.034583530992647
 20
6.243409044865288
 10
7.034583530992647
 20
6.243409044865287
 42
-0.2320082507980256
 10
7.051968097640806
 20
6.240583991930302
 10
7.079346582021788
 20
6.221160120897064
 42
0.9999999999999998
 10
7.125636798991525
 20
6.28640746423677
  0
LWPOLYLINE
  5
3E0
330
1F
100
AcDbEntity
  8
L
 62
     3
100
AcDbPolyline
 90
        2
 70
     1
 43
0.0
 10
7.261118571528857
 20
6.364151825240394
 10
7.261118571528832
 20
6.364151825240369
  0
ENDSEC
  0
SECTION
  2
OBJECTS
  0
DICTIONARY
  5
C
330
0
100
AcDbDictionary
  3
ACAD_GROUP
350
D
  3
ACAD_LAYOUT
350
1A
  3
ACAD_MLINESTYLE
350
17
  3
ACAD_PLOTSETTINGS
350
19
  3
ACAD_PLOTSTYLENAME
350
E
  3
ACDBHEADERROUNDTRIPXREC
350
3FD
  0
DICTIONARY
  5
41F
330
1F
100
AcDbDictionary
280
     1
  3
ACAD_LAYOUTSELFREF
360
420
  0
DICTIONARY
  5
41D
330
1B
100
AcDbDictionary
280
     1
  3
ACAD_LAYOUTSELFREF
360
41E
  0
DICTIONARY
  5
D
102
{ACAD_REACTORS
330
C
102
}
330
C
100
AcDbDictionary
  0
DICTIONARY
  5
1A
102
{ACAD_REACTORS
330
C
102
}
330
C
100
AcDbDictionary
  0
DICTIONARY
  5
17
102
{ACAD_REACTORS
330
C
102
}
330
C
100
AcDbDictionary
  3
STANDARD
350
18
  0
DICTIONARY
  5
19
102
{ACAD_REACTORS
330
C
102
}
330
C
100
AcDbDictionary
  0
ACDBDICTIONARYWDFLT
  5
E
102
{ACAD_REACTORS
330
C
102
}
330
C
100
AcDbDictionary
281
     1
  3
Normal
350
F
100
AcDbDictionaryWithDefault
340
F
  0
DICTIONARY
  5
3FD
102
{ACAD_REACTORS
330
C
102
}
330
C
100
AcDbDictionary
  3
CEPSNTYPE
350
407
  3
FINGERPRINTGUID
350
408
  3
HYPERLINKBASE
350
400
  3
INSUNITS
350
406
  3
LAYOUTDICT
350
402
  3
LWETCUNION
350
405
  3
PLOTSETDICT
350
403
  3
PLOTSTYLNAMDICT
350
404
  3
PSVPSCALE
350
40A
  3
PUCSBASE
350
40D
  3
PUCSORGBACK
350
413
  3
PUCSORGBOTTOM
350
40F
  3
PUCSORGFRONT
350
412
  3
PUCSORGLEFT
350
410
  3
PUCSORGRIGHT
350
411
  3
PUCSORGTOP
350
40E
  3
PUCSORTHOREF
350
40B
  3
PUCSORTHOVIEW
350
40C
  3
STYLESHEET
350
401
  3
TSTACKALIGN
350
3FE
  3
TSTACKSIZE
350
3FF
  3
UCSBASE
350
416
  3
UCSORGBACK
350
41C
  3
UCSORGBOTTOM
350
418
  3
UCSORGFRONT
350
41B
  3
UCSORGLEFT
350
419
  3
UCSORGRIGHT
350
41A
  3
UCSORGTOP
350
417
  3
UCSORTHOREF
350
414
  3
UCSORTHOVIEW
350
415
  3
VERSIONGUID
350
409
  0
XRECORD
  5
420
102
{ACAD_REACTORS
330
41F
102
}
330
41F
100
AcDbXrecord
340
1F
  0
XRECORD
  5
41E
102
{ACAD_REACTORS
330
41D
102
}
330
41D
100
AcDbXrecord
340
1B
  0
MLINESTYLE
  5
18
102
{ACAD_REACTORS
330
17
102
}
330
17
100
AcDbMlineStyle
  2
STANDARD
 70
     0
  3

 62
   256
 51
90.0
 52
90.0
 71
     2
 49
0.5
 62
   256
  6
BYLAYER
 49
-0.5
 62
   256
  6
BYLAYER
  0
ACDBPLACEHOLDER
  5
F
102
{ACAD_REACTORS
330
E
102
}
330
E
100
AcDbPlaceHolder
280
     0
  0
XRECORD
  5
407
102
{ACAD_REACTORS
330
3FD
102
}
330
3FD
100
AcDbXrecord
 90
        0
  0
XRECORD
  5
408
102
{ACAD_REACTORS
330
3FD
102
}
330
3FD
100
AcDbXrecord
  1
{DC175E3D-AE85-11D5-9A93-0040C77E826B}
  0
XRECORD
  5
400
102
{ACAD_REACTORS
330
3FD
102
}
330
3FD
100
AcDbXrecord
  1

  0
XRECORD
  5
406
102
{ACAD_REACTORS
330
3FD
102
}
330
3FD
100
AcDbXrecord
 90
        1
  0
XRECORD
  5
402
102
{ACAD_REACTORS
330
3FD
102
}
330
3FD
100
AcDbXrecord
340
1A
  0
XRECORD
  5
405
102
{ACAD_REACTORS
330
3FD
102
}
330
3FD
100
AcDbXrecord
 90
    10781
  0
XRECORD
  5
403
102
{ACAD_REACTORS
330
3FD
102
}
330
3FD
100
AcDbXrecord
340
19
  0
XRECORD
  5
404
102
{ACAD_REACTORS
330
3FD
102
}
330
3FD
100
AcDbXrecord
340
E
  0
XRECORD
  5
40A
102
{ACAD_REACTORS
330
3FD
102
}
330
3FD
100
AcDbXrecord
 40
0.0
  0
XRECORD
  5
40D
102
{ACAD_REACTORS
330
3FD
102
}
330
3FD
100
AcDbXrecord
340
0
  0
XRECORD
  5
413
102
{ACAD_REACTORS
330
3FD
102
}
330
3FD
100
AcDbXrecord
 10
0.0
 20
0.0
 30
0.0
  0
XRECORD
  5
40F
102
{ACAD_REACTORS
330
3FD
102
}
330
3FD
100
AcDbXrecord
 10
0.0
 20
0.0
 30
0.0
  0
XRECORD
  5
412
102
{ACAD_REACTORS
330
3FD
102
}
330
3FD
100
AcDbXrecord
 10
0.0
 20
0.0
 30
0.0
  0
XRECORD
  5
410
102
{ACAD_REACTORS
330
3FD
102
}
330
3FD
100
AcDbXrecord
 10
0.0
 20
0.0
 30
0.0
  0
XRECORD
  5
411
102
{ACAD_REACTORS
330
3FD
102
}
330
3FD
100
AcDbXrecord
 10
0.0
 20
0.0
 30
0.0
  0
XRECORD
  5
40E
102
{ACAD_REACTORS
330
3FD
102
}
330
3FD
100
AcDbXrecord
 10
0.0
 20
0.0
 30
0.0
  0
XRECORD
  5
40B
102
{ACAD_REACTORS
330
3FD
102
}
330
3FD
100
AcDbXrecord
340
0
  0
XRECORD
  5
40C
102
{ACAD_REACTORS
330
3FD
102
}
330
3FD
100
AcDbXrecord
 70
     0
  0
XRECORD
  5
401
102
{ACAD_REACTORS
330
3FD
102
}
330
3FD
100
AcDbXrecord
  1

  0
XRECORD
  5
3FE
102
{ACAD_REACTORS
330
3FD
102
}
330
3FD
100
AcDbXrecord
 90
        1
  0
XRECORD
  5
3FF
102
{ACAD_REACTORS
330
3FD
102
}
330
3FD
100
AcDbXrecord
 90
       70
  0
XRECORD
  5
416
102
{ACAD_REACTORS
330
3FD
102
}
330
3FD
100
AcDbXrecord
340
0
  0
XRECORD
  5
41C
102
{ACAD_REACTORS
330
3FD
102
}
330
3FD
100
AcDbXrecord
 10
0.0
 20
0.0
 30
0.0
  0
XRECORD
  5
418
102
{ACAD_REACTORS
330
3FD
102
}
330
3FD
100
AcDbXrecord
 10
0.0
 20
0.0
 30
0.0
  0
XRECORD
  5
41B
102
{ACAD_REACTORS
330
3FD
102
}
330
3FD
100
AcDbXrecord
 10
0.0
 20
0.0
 30
0.0
  0
XRECORD
  5
419
102
{ACAD_REACTORS
330
3FD
102
}
330
3FD
100
AcDbXrecord
 10
0.0
 20
0.0
 30
0.0
  0
XRECORD
  5
41A
102
{ACAD_REACTORS
330
3FD
102
}
330
3FD
100
AcDbXrecord
 10
0.0
 20
0.0
 30
0.0
  0
XRECORD
  5
417
102
{ACAD_REACTORS
330
3FD
102
}
330
3FD
100
AcDbXrecord
 10
0.0
 20
0.0
 30
0.0
  0
XRECORD
  5
414
102
{ACAD_REACTORS
330
3FD
102
}
330
3FD
100
AcDbXrecord
340
0
  0
XRECORD
  5
415
102
{ACAD_REACTORS
330
3FD
102
}
330
3FD
100
AcDbXrecord
 70
     0
  0
XRECORD
  5
409
102
{ACAD_REACTORS
330
3FD
102
}
330
3FD
100
AcDbXrecord
  1
{D0B28512-0251-4B33-BAE6-5901C0B1763A}
  0
ENDSEC
  0
EOF
